The.Pembrokeshire.Murders.S01E01.1080p.HDTV.h264-FoV

seeders: 356
leechers: 39
updated:
Added by prudence25 in TV > HD

Download Fast Safe Anonymous
movies, software, shows...

Files

The.Pembrokeshire.Murders.S01E01.1080p.HDTV.h264-FoV[rarbg]
  • RARBG.txt (0.0 KB)
  • RARBG_DO_NOT_MIRROR.exe (0.1 KB)
  • the.pembrokeshire.murders.s01e01.1080p.hdtv.h264-fov.nfo (9.2 KB)
  • the.pembrokeshire.murders.s01e01.1080p.hdtv.h264-fov_tvm.jpg (369.0 KB)
  • the_pembrokeshire_murders.1x01.1080p_hdtv_h264-fov.mkv (932.9 MB)

Description





Code:

Video
ID : 1
Format : AVC
Format/Info : Advanced Video Codec
Format profile : [email protected]
Format settings : CABAC / 4 Ref Frames
Format settings, CABAC : Yes
Format settings, Reference frames : 4 frames
Format settings, GOP : M=8, N=24
Codec ID : V_MPEG4/ISO/AVC
Duration : 47 min 57 s
Bit rate : 2 587 kb/s
Width : 1 920 pixels
Height : 1 080 pixels
Display aspect ratio : 16:9
Frame rate mode : Constant
Frame rate : 25.000 FPS
Standard : Component
Color space : YUV
Chroma subsampling : 4:2:0
Bit depth : 8 bits
Scan type : MBAFF
Scan type, store method : Interleaved fields
Scan order : Top Field First
Bits/(Pixel*Frame) : 0.050
Stream size : 887 MiB (95%)
Default : Yes
Forced : No
Color range : Limited
Color primaries : BT.709
Transfer characteristics : BT.709
Matrix coefficients : BT.709

Audio
ID : 2
Format : AAC LC
Format/Info : Advanced Audio Codec Low Complexity
Codec ID : A_AAC-2
Duration : 47 min 57 s
Bit rate : 124 kb/s
Channel(s) : 2 channels
Channel layout : L R
Sampling rate : 48.0 kHz
Frame rate : 46.875 FPS (1024 SPF)
Compression mode : Lossy
Delay relative to video : -395 ms
Stream size : 42.5 MiB (5%)
Language : English
Default : Yes
Forced : No

Text
ID : 3
Format : DVB Subtitle
Muxing mode : zlib
Codec ID : S_DVBSUB
Codec ID/Info : Picture based subtitle format used on DVBs
Duration : 48 min 2 s
Bit rate : 13.4 kb/s
Count of elements : 1392
Stream size : 4.60 MiB (0%)
Language : English
Default : No
Forced : No












Download torrent
933.3 MB
seeders:356
leechers:39
The.Pembrokeshire.Murders.S01E01.1080p.HDTV.h264-FoV


Trackers

tracker name
http://tracker.trackerfix.com:80/announce
udp://9.rarbg.me:2760/announce
udp://9.rarbg.to:2910/announce
µTorrent compatible trackers list

Download torrent
933.3 MB
seeders:356
leechers:39
The.Pembrokeshire.Murders.S01E01.1080p.HDTV.h264-FoV


Torrent hash: A2513F272E4183E2C3C2E8D497BB1EA7DF3C142D