Away (2020) Season 01 S01 (2160p NF WEBRip NVENC HEVC 10bit AAC 5.1 Joy) [UTR]

seeders: 18
leechers: 13
updated:
Added by UTRCorp in TV > HEVC/x265

Download Fast Safe Anonymous
movies, software, shows...

Files

Away Season 1 [2160p NV 10bit Joy]
  • Away S01E01 Go [2160p NV 10bit Joy].mkv (1.7 GB)
  • Away S01E02 Negative Return [2160p NV 10bit Joy].mkv (1.4 GB)
  • Away S01E03 Half the Sky [2160p NV 10bit Joy].mkv (1.4 GB)
  • Away S01E04 Excellent Chariots [2160p NV 10bit Joy].mkv (1.3 GB)
  • Away S01E05 Space Dogs [2160p NV 10bit Joy].mkv (1.6 GB)
  • Away S01E06 A Little Faith [2160p NV 10bit Joy].mkv (1.4 GB)
  • Away S01E07 Goodnight Mars [2160p NV 10bit Joy].mkv (1.5 GB)
  • Away S01E08 Vital Signs [2160p NV 10bit Joy].mkv (1.4 GB)
  • Away S01E09 Spektr [2160p NV 10bit Joy].mkv (1.4 GB)
  • Away S01E10 Home [2160p NV 10bit Joy].mkv (1.4 GB)
  • Encoded by JoyBell (UTR).txt (3.6 KB)
  • folder.jpg (141.2 KB)
  • How to play HEVC (THIS FILE).txt (3.8 KB)
  • Ninite K-Lite Codecs Unattended Silent Installer and Updater.website (0.5 KB)

Description



Media Information

Code:

General
Format : Matroska
Format version : Version 4 / Version 2
File size : 1.68 GiB
Duration : 56 min 43 s
Overall bit rate : 4 249 kb/s
Movie name : Away S01E01 Go [2160p NV 10bit Joy][UTR]
Encoded date : UTC 2020-09-10 20:56:50
Writing application : mkvmerge v34.0.0 ('Sight and Seen') 64-bit
Writing library : libebml v1.3.7 + libmatroska v1.5.0

Video
ID : 1
Format : HEVC
Format/Info : High Efficiency Video Coding
Format profile : Main [email protected]@High
Codec ID : V_MPEGH/ISO/HEVC
Duration : 56 min 43 s
Bit rate : 4 006 kb/s
Width : 3 840 pixels
Height : 1 744 pixels
Display aspect ratio : 2.2:1
Frame rate mode : Constant
Frame rate : 23.976 (24000/1001) FPS
Color space : YUV
Chroma subsampling : 4:2:0
Bit depth : 10 bits
Bits/(Pixel*Frame) : 0.025
Stream size : 1.59 GiB (94%)
Default : Yes
Forced : No
Color range : Limited
Matrix coefficients : BT.709

Audio
ID : 2
Format : AAC
Format/Info : Advanced Audio Codec
Format profile : LC
Codec ID : A_AAC
Duration : 56 min 43 s
Bit rate : 236 kb/s
Channel(s) : 6 channels
Channel positions : Front: L C R, Side: L R, LFE
Sampling rate : 48.0 kHz
Frame rate : 46.875 FPS (1024 spf)
Compression mode : Lossy
Delay relative to video : 9 ms
Stream size : 95.9 MiB (6%)
Language : English
Default : No
Forced : No

Subtitle #1
ID : 3
Format : UTF-8
Codec ID : S_TEXT/UTF8
Codec ID/Info : UTF-8 Plain Text
Duration : 9 s 593 ms
Bit rate : 144 b/s
Count of elements : 4
Stream size : 173 Bytes (0%)
Language : English
Default : No
Forced : Yes

Subtitle #2
ID : 4
Format : UTF-8
Codec ID : S_TEXT/UTF8
Codec ID/Info : UTF-8 Plain Text
Duration : 55 min 2 s
Bit rate : 81 b/s
Count of elements : 945
Stream size : 32.8 KiB (0%)
Language : English
Default : No
Forced : No

Subtitle #3
ID : 5
Format : UTF-8
Codec ID : S_TEXT/UTF8
Codec ID/Info : UTF-8 Plain Text
Duration : 56 min 24 s
Bit rate : 109 b/s
Count of elements : 796
Stream size : 45.1 KiB (0%)
Language : Arabic
Default : No
Forced : No

Subtitle #4
ID : 6
Format : UTF-8
Codec ID : S_TEXT/UTF8
Codec ID/Info : UTF-8 Plain Text
Duration : 56 min 24 s
Bit rate : 62 b/s
Count of elements : 750
Stream size : 25.9 KiB (0%)
Language : Czech
Default : No
Forced : No

Subtitle #5
ID : 7
Format : UTF-8
Codec ID : S_TEXT/UTF8
Codec ID/Info : UTF-8 Plain Text
Duration : 56 min 24 s
Bit rate : 60 b/s
Count of elements : 716
Stream size : 24.8 KiB (0%)
Language : Danish
Default : No
Forced : No

Subtitle #6
ID : 8
Format : UTF-8
Codec ID : S_TEXT/UTF8
Codec ID/Info : UTF-8 Plain Text
Duration : 56 min 24 s
Bit rate : 63 b/s
Count of elements : 757
Stream size : 26.4 KiB (0%)
Language : German
Default : No
Forced : No

Subtitle #7
ID : 9
Format : UTF-8
Codec ID : S_TEXT/UTF8
Codec ID/Info : UTF-8 Plain Text
Duration : 56 min 24 s
Bit rate : 104 b/s
Count of elements : 836
Stream size : 43.3 KiB (0%)
Language : Greek
Default : No
Forced : No

Subtitle #8
ID : 10
Format : UTF-8
Codec ID : S_TEXT/UTF8
Codec ID/Info : UTF-8 Plain Text
Duration : 56 min 24 s
Bit rate : 61 b/s
Count of elements : 776
Stream size : 25.4 KiB (0%)
Language : Spanish
Default : No
Forced : No

Subtitle #9
ID : 11
Format : UTF-8
Codec ID : S_TEXT/UTF8
Codec ID/Info : UTF-8 Plain Text
Duration : 56 min 24 s
Bit rate : 60 b/s
Count of elements : 766
Stream size : 24.8 KiB (0%)
Language : Spanish
Default : No
Forced : No

Subtitle #10
ID : 12
Format : UTF-8
Codec ID : S_TEXT/UTF8
Codec ID/Info : UTF-8 Plain Text
Duration : 56 min 24 s
Bit rate : 62 b/s
Count of elements : 712
Stream size : 25.6 KiB (0%)
Language : Finnish
Default : No
Forced : No

Subtitle #11
ID : 13
Format : UTF-8
Codec ID : S_TEXT/UTF8
Codec ID/Info : UTF-8 Plain Text
Duration : 56 min 24 s
Bit rate : 63 b/s
Count of elements : 769
Stream size : 26.2 KiB (0%)
Language : French
Default : No
Forced : No

Subtitle #12
ID : 14
Format : UTF-8
Codec ID : S_TEXT/UTF8
Codec ID/Info : UTF-8 Plain Text
Duration : 56 min 24 s
Bit rate : 100 b/s
Count of elements : 797
Stream size : 41.5 KiB (0%)
Language : Hebrew
Default : No
Forced : No

Subtitle #13
ID : 15
Format : UTF-8
Codec ID : S_TEXT/UTF8
Codec ID/Info : UTF-8 Plain Text
Duration : 56 min 26 s
Bit rate : 53 b/s
Count of elements : 753
Stream size : 22.3 KiB (0%)
Language : Croatian
Default : No
Forced : No

Subtitle #14
ID : 16
Format : UTF-8
Codec ID : S_TEXT/UTF8
Codec ID/Info : UTF-8 Plain Text
Duration : 56 min 24 s
Bit rate : 60 b/s
Count of elements : 735
Stream size : 24.9 KiB (0%)
Language : Hungarian
Default : No
Forced : No

Subtitle #15
ID : 17
Format : UTF-8
Codec ID : S_TEXT/UTF8
Codec ID/Info : UTF-8 Plain Text
Duration : 56 min 24 s
Bit rate : 60 b/s
Count of elements : 799
Stream size : 25.1 KiB (0%)
Language : Indonesian
Default : No
Forced : No

Subtitle #16
ID : 18
Format : UTF-8
Codec ID : S_TEXT/UTF8
Codec ID/Info : UTF-8 Plain Text
Duration : 56 min 24 s
Bit rate : 60 b/s
Count of elements : 760
Stream size : 24.8 KiB (0%)
Language : Italian
Default : No
Forced : No

Subtitle #17
ID : 19
Format : UTF-8
Codec ID : S_TEXT/UTF8
Codec ID/Info : UTF-8 Plain Text
Duration : 56 min 23 s
Bit rate : 60 b/s
Count of elements : 796
Stream size : 25.1 KiB (0%)
Language : Japanese
Default : No
Forced : No

Subtitle #18
ID : 20
Format : UTF-8
Codec ID : S_TEXT/UTF8
Codec ID/Info : UTF-8 Plain Text
Duration : 56 min 24 s
Bit rate : 78 b/s
Count of elements : 808
Stream size : 32.6 KiB (0%)
Language : Korean
Default : No
Forced : No

Subtitle #19
ID : 21
Format : UTF-8
Codec ID : S_TEXT/UTF8
Codec ID/Info : UTF-8 Plain Text
Duration : 56 min 24 s
Bit rate : 74 b/s
Count of elements : 802
Stream size : 30.6 KiB (0%)
Language : Malay
Default : No
Forced : No

Subtitle #20
ID : 22
Format : UTF-8
Codec ID : S_TEXT/UTF8
Codec ID/Info : UTF-8 Plain Text
Duration : 56 min 25 s
Bit rate : 64 b/s
Count of elements : 676
Stream size : 26.6 KiB (0%)
Language : Norwegian Bokmal
Default : No
Forced : No

Subtitle #21
ID : 23
Format : UTF-8
Codec ID : S_TEXT/UTF8
Codec ID/Info : UTF-8 Plain Text
Duration : 56 min 24 s
Bit rate : 56 b/s
Count of elements : 726
Stream size : 23.5 KiB (0%)
Language : Dutch
Default : No
Forced : No

Subtitle #22
ID : 24
Format : UTF-8
Codec ID : S_TEXT/UTF8
Codec ID/Info : UTF-8 Plain Text
Duration : 56 min 23 s
Bit rate : 61 b/s
Count of elements : 790
Stream size : 25.3 KiB (0%)
Language : Polish
Default : No
Forced : No

Subtitle #23
ID : 25
Format : UTF-8
Codec ID : S_TEXT/UTF8
Codec ID/Info : UTF-8 Plain Text
Duration : 56 min 24 s
Bit rate : 62 b/s
Count of elements : 762
Stream size : 25.8 KiB (0%)
Language : Portuguese
Default : No
Forced : No

Subtitle #24
ID : 26
Format : UTF-8
Codec ID : S_TEXT/UTF8
Codec ID/Info : UTF-8 Plain Text
Duration : 55 min 3 s
Bit rate : 64 b/s
Count of elements : 793
Stream size : 26.0 KiB (0%)
Language : Portuguese
Default : No
Forced : No

Subtitle #25
ID : 27
Format : UTF-8
Codec ID : S_TEXT/UTF8
Codec ID/Info : UTF-8 Plain Text
Duration : 54 min 40 s
Bit rate : 69 b/s
Count of elements : 740
Stream size : 27.9 KiB (0%)
Language : Romanian
Default : No
Forced : No

Subtitle #26
ID : 28
Format : UTF-8
Codec ID : S_TEXT/UTF8
Codec ID/Info : UTF-8 Plain Text
Duration : 56 min 24 s
Bit rate : 95 b/s
Count of elements : 888
Stream size : 39.5 KiB (0%)
Language : Russian
Default : No
Forced : No

Subtitle #27
ID : 29
Format : UTF-8
Codec ID : S_TEXT/UTF8
Codec ID/Info : UTF-8 Plain Text
Duration : 56 min 24 s
Bit rate : 65 b/s
Count of elements : 790
Stream size : 27.3 KiB (0%)
Language : Swedish
Default : No
Forced : No

Subtitle #28
ID : 30
Format : UTF-8
Codec ID : S_TEXT/UTF8
Codec ID/Info : UTF-8 Plain Text
Duration : 56 min 24 s
Bit rate : 153 b/s
Count of elements : 810
Stream size : 63.2 KiB (0%)
Language : Thai
Default : No
Forced : No

Subtitle #29
ID : 31
Format : UTF-8
Codec ID : S_TEXT/UTF8
Codec ID/Info : UTF-8 Plain Text
Duration : 56 min 24 s
Bit rate : 62 b/s
Count of elements : 701
Stream size : 26.0 KiB (0%)
Language : Turkish
Default : No
Forced : No

Subtitle #30
ID : 32
Format : UTF-8
Codec ID : S_TEXT/UTF8
Codec ID/Info : UTF-8 Plain Text
Duration : 56 min 24 s
Bit rate : 88 b/s
Count of elements : 775
Stream size : 36.5 KiB (0%)
Language : Vietnamese
Default : No
Forced : No

Subtitle #31
ID : 33
Format : UTF-8
Codec ID : S_TEXT/UTF8
Codec ID/Info : UTF-8 Plain Text
Duration : 54 min 40 s
Bit rate : 73 b/s
Count of elements : 811
Stream size : 29.6 KiB (0%)
Language : Chinese
Default : No
Forced : No

Subtitle #32
ID : 34
Format : UTF-8
Codec ID : S_TEXT/UTF8
Codec ID/Info : UTF-8 Plain Text
Duration : 56 min 24 s
Bit rate : 66 b/s
Count of elements : 934
Stream size : 27.4 KiB (0%)
Language : Chinese
Default : No
Forced : No



Source Information

Code:

Release:
Away.S01.2160p.NF.WEBRip.DDP5.1.x265-NTb [71.1 GB]



Code:


Note From UTR
Whilst we are happy for our releases to be re-posted on a platform we aren't on, please do so in an 'as-is' format. We ask that you do not create a new torrent, include all descriptions you see above including the UTR logo, tags, notes and screenshots. If you'd like to become a permanent poster on a website we don't post to, feel free to get in contact with a UTR member.
If possible please donate for seedboxes.
BTC - 1QA5fum5AyXvWzdVCkQzUNvw3Ef15fHRaR
Monero - 8AuksPSzY7fen3HHT1a2342PgVy4J93MKfXG3AAcayV76miTyJ3sNfn38srwrpLirGfeR5DwhTL8GW8pdQgT7bZcJ25ynMx
Dash - Xh4mNs6uwZdpCEX2HSEVwGvPD7yKxZ1Ccd
Ethereum - 0x51c06c94e74c16735a7a6e841ad29fc90a84eb1f





Download torrent
14.5 GB
seeders:18
leechers:13
Away (2020) Season 01 S01 (2160p NF WEBRip NVENC HEVC 10bit AAC 5.1 Joy) [UTR]


Trackers

tracker name
udp://tracker.opentrackr.org:1337/announce
udp://9.rarbg.com:2710/announce
udp://9.rarbg.to:2710/announce
udp://tracker.torrent.eu.org:451/announce
udp://tracker.tiny-vps.com:6969/announce
udp://open.demonii.si:1337/announce
udp://exodus.desync.com:6969/announce
µTorrent compatible trackers list

Download torrent
14.5 GB
seeders:18
leechers:13
Away (2020) Season 01 S01 (2160p NF WEBRip NVENC HEVC 10bit AAC 5.1 Joy) [UTR]


Torrent hash: 613D9F29525C24CA79D718A635BCD16EC167FD79