Continuum.S01-S04.1080p.HEVC.x265 + WEBISODES 544p

seeders: 3
leechers: 1
updated:
Added by MorTuadh in TV > HEVC/x265

Download Fast Safe Anonymous
movies, software, shows...

Files

Continuum.S01-S04.1080p.HEVC.x265 + WEBISODES.544p Continuum.Season.4.S04.1080p.WEB-DL.DD5.1.HEVC.x265-LGC
  • Continuum.S04E01.Lost.Hours.1080p.WEB-DL.DD5.1.H.265-LGC.mkv (639.7 MB)
  • Continuum.S04E02.Rush.Hour.1080p.WEB-DL.DD5.1.H.265-LGC.mkv (635.7 MB)
  • Continuum.S04E03.Power.Hour.1080p.WEB-DL.DD5.1.H.265-LGC.mkv (636.1 MB)
  • Continuum.S04E04.Zero.Hour.1080p.WEB-DL.DD5.1.H.265-LGC.mkv (635.4 MB)
  • Continuum.S04E05.The.Desperate.Hours.1080p.WEB-DL.DD5.1.H.265-LGC.mkv (636.0 MB)
  • Continuum.S04E06.Final.Hour.1080p.WEB-DL.DD5.1.H.265-LGC.mkv (636.7 MB)
Continuum.Season.1.S01.1080p.BluRay.HEVC.x265.n0m1
  • Continuum.S01E02.1080p.BluRay.x265-n0m1.mkv (411.6 MB)
  • Continuum.S01E03.1080p.BluRay.x265-n0m1.mkv (472.0 MB)
  • Continuum.S01E04.1080p.BluRay.x265-n0m1.mkv (452.6 MB)
  • Continuum.S01E05.1080p.BluRay.x265-n0m1.mkv (488.8 MB)
  • Continuum.S01E06.1080p.BluRay.x265-n0m1.mkv (577.5 MB)
  • Continuum.S01E07.1080p.BluRay.x265-n0m1.mkv (559.3 MB)
  • Continuum.S01E08.1080p.BluRay.x265-n0m1.mkv (515.7 MB)
  • Continuum.S01E09.1080p.BluRay.x265-n0m1.mkv (549.1 MB)
  • Continuum.S01E10.1080p.BluRay.x265-n0m1.mkv (555.4 MB)
  • Continuum.S01E01.1080p.BluRay.x265-n0m1.mkv (504.3 MB)
Continuum.Season.2.S02.1080p.BluRay.HEVC.x265.n0m1
  • Continuum.S02E01.1080p.BluRay.x265-n0m1.mkv (490.2 MB)
  • Continuum.S02E02.1080p.BluRay.x265-n0m1.mkv (534.1 MB)
  • Continuum.S02E03.1080p.BluRay.x265-n0m1.mkv (446.9 MB)
  • Continuum.S02E04.1080p.BluRay.x265-n0m1.mkv (458.2 MB)
  • Continuum.S02E05.1080p.BluRay.x265-n0m1.mkv (431.2 MB)
  • Continuum.S02E06.1080p.BluRay.x265-n0m1.mkv (422.0 MB)
  • Continuum.S02E07.1080p.BluRay.x265-n0m1.mkv (451.1 MB)
  • Continuum.S02E08.1080p.BluRay.x265-n0m1.mkv (483.6 MB)
  • Continuum.S02E09.1080p.BluRay.x265-n0m1.mkv (460.2 MB)
  • Continuum.S02E10.1080p.BluRay.x265-n0m1.mkv (483.1 MB)
  • Continuum.S02E11.1080p.BluRay.x265-n0m1.mkv (418.0 MB)
  • Continuum.S02E12.1080p.BluRay.x265-n0m1.mkv (506.9 MB)
  • Continuum.S02E13.1080p.BluRay.x265-n0m1.mkv (436.1 MB)
Continuum.Season.3.S03.1080p.BluRay.HEVC.x265.n0m1
  • Continuum.S03E01.1080p.BluRay.x265-n0m1.mkv (592.2 MB)
  • Continuum.S03E02.1080p.BluRay.x265-n0m1.mkv (498.3 MB)
  • Continuum.S03E03.1080p.BluRay.x265-n0m1.mkv (568.0 MB)
  • Continuum.S03E04.1080p.BluRay.x265-n0m1.mkv (501.4 MB)
  • Continuum.S03E05.1080p.BluRay.x265-n0m1.mkv (504.1 MB)
  • Continuum.S03E06.1080p.BluRay.x265-n0m1.mkv (522.7 MB)
  • Continuum.S03E07.1080p.BluRay.x265-n0m1.mkv (551.9 MB)
  • Continuum.S03E08.1080p.BluRay.x265-n0m1.mkv (507.1 MB)
  • Continuum.S03E09.1080p.BluRay.x265-n0m1.mkv (510.4 MB)
  • Continuum.S03E10.1080p.BluRay.x265-n0m1.mkv (477.7 MB)
  • Continuum.S03E11.1080p.BluRay.x265-n0m1.mkv (525.3 MB)
  • Continuum.S03E12.1080p.BluRay.x265-n0m1.mkv (525.4 MB)
  • Continuum.S03E13.1080p.BluRay.x265-n0m1.mkv (515.9 MB)
Continuum.Season.3.S03.Webisodes.544p
  • CONTINUUM_WEBISODE_301b.mp4 (5.2 MB)
  • CONTINUUM_WEBISODE_302.mp4 (15.6 MB)
  • CONTINUUM_WEBISODE_303.mp4 (12.5 MB)
  • CONTINUUM_WEBISODE_304.mp4 (10.2 MB)
  • CONTINUUM_WEBISODE_305.mp4 (11.4 MB)
  • CONTINUUM_WEBISODE_306.mp4 (13.7 MB)
  • CONTINUUM_WEBISODE_307.mp4 (9.3 MB)
  • CONTINUUM_WEBISODE_308.mp4 (10.9 MB)
  • CONTINUUM_WEBISODE_309.mp4 (30.4 MB)
  • CONTINUUM_WEBISODE_310.mp4 (9.5 MB)
  • CONTINUUM_WEBISODE_310b.mp4 (7.0 MB)
  • CONTINUUM_WEBISODE_310c.mp4 (5.3 MB)
  • CONTINUUM_WEBISODE_311.mp4 (16.6 MB)
  • CONTINUUM_WEBISODE_312.mp4 (11.8 MB)
  • CONTINUUM_WEBISODE_313.mp4 (11.9 MB)

Description

https://www.imdb.com/title/tt1954347

------------------------------------------------------------------------------------------------------

Continuum.Season.1.S01.1080p.BluRay.HEVC.x265.n0m1
Continuum.Season.2.S02.1080p.BluRay.HEVC.x265.n0m1
Continuum.Season.3.S03.1080p.BluRay.HEVC.x265.n0m1
Continuum.Season.3.S03.Webisodes.544p
Continuum.Season.4.S04.1080p.WEB-DL.DD5.1.HEVC.x265-LGC

------------------------------------------------------------------------------------------------------

Continuum.Season.1.S01.1080p.BluRay.HEVC.x265.n0m1

General
Format : Matroska
Format version : Version 4
File size : 504 MiB
Duration : 43 min 59 s
Overall bit rate : 1 603 kb/s
Encoded date : UTC 2015-08-03 14:02:04
Writing application : mkvmerge v8.1.0 ('Psychedelic Postcard') 64bit
Writing library : libebml v1.3.1 + libmatroska v1.4.2

Video
ID : 1
Format : HEVC
Format/Info : High Efficiency Video Coding
Format profile : [email protected]@Main
Codec ID : V_MPEGH/ISO/HEVC
Duration : 43 min 59 s
Bit rate : 1 216 kb/s
Width : 1 920 pixels
Height : 1 080 pixels
Display aspect ratio : 16:9
Frame rate mode : Constant
Frame rate : 23.976 (24000/1001) FPS
Color space : YUV
Chroma subsampling : 4:2:0
Bit depth : 8 bits
Bits/(Pixel*Frame) : 0.024
Stream size : 383 MiB (76%)
Title : X264
Writing library : x265 1.7+382-7c83f7755422:[Windows][GCC 5.2.0][64 bit] 8bit
Encoding settings : wpp / ctu=64 / min-cu-size=8 / max-tu-size=32 / tu-intra-depth=1 / tu-inter-depth=1 / me=1 / subme=2 / merange=57 / no-rect / no-amp / max-merge=2 / temporal-mvp / no-early-skip / rdpenalty=0 / no-tskip / no-tskip-fast / strong-intra-smoothing / no-lossless / no-cu-lossless / no-constrained-intra / no-fast-intra / open-gop / no-temporal-layers / interlace=0 / keyint=250 / min-keyint=23 / scenecut=40 / rc-lookahead=20 / lookahead-slices=0 / bframes=4 / bframe-bias=0 / b-adapt=2 / ref=3 / limit-refs=0 / weightp / no-weightb / aq-mode=1 / aq-strength=1.00 / cbqpoffs=0 / crqpoffs=0 / rd=3 / psy-rd=0.30 / rdoq-level=0 / psy-rdoq=0.00 / signhide / deblock / sao / no-sao-non-deblock / b-pyramid / cutree / rc=crf / crf=22.0 / qcomp=0.60 / qpmin=0 / qpmax=51 / qpstep=4 / ipratio=1.40 / pbratio=1.30
Language : English
Default : Yes
Forced : No

Audio
ID : 2
Format : AAC LC
Format/Info : Advanced Audio Codec Low Complexity
Codec ID : A_AAC-2
Duration : 43 min 59 s
Bit rate : 384 kb/s
Channel(s) : 6 channels
Channel layout : C L R Ls Rs LFE
Sampling rate : 48.0 kHz
Frame rate : 46.875 FPS (1024 SPF)
Compression mode : Lossy
Stream size : 121 MiB (24%)
Title : DTS
Language : English
Default : Yes
Forced : No

Text #1
ID : 3
Format : ASS
Codec ID : S_TEXT/ASS
Codec ID/Info : Advanced Sub Station Alpha
Duration : 43 min 27 s
Bit rate : 95 b/s
Count of elements : 573
Compression mode : Lossless
Stream size : 30.4 KiB (0%)
Default : Yes
Forced : No

Text #2
ID : 4
Format : UTF-8
Codec ID : S_TEXT/UTF8
Codec ID/Info : UTF-8 Plain Text
Duration : 43 min 27 s
Bit rate : 56 b/s
Count of elements : 573
Stream size : 18.0 KiB (0%)
Default : No
Forced : No






Continuum.Season.3.S03.Webisodes.544p

General
Format : MPEG-4
Format profile : Base Media / Version 2
Codec ID : mp42 (isom)
File size : 5.25 MiB
Duration : 51 s 502 ms
Overall bit rate mode : Variable
Overall bit rate : 855 kb/s
Encoded date : UTC 2014-04-11 22:31:20
Tagged date : UTC 2014-04-11 22:31:20

Video
ID : 1
Format : AVC
Format/Info : Advanced Video Codec
Format profile : [email protected]
Format settings : CABAC / 4 Ref Frames
Format settings, CABAC : Yes
Format settings, Reference : 4 frames
Codec ID : avc1
Codec ID/Info : Advanced Video Coding
Duration : 51 s 468 ms
Bit rate mode : Variable
Bit rate : 806 kb/s
Maximum bit rate : 8 000 kb/s
Width : 960 pixels
Height : 544 pixels
Display aspect ratio : 16:9
Frame rate mode : Constant
Frame rate : 23.976 (24000/1001) FPS
Color space : YUV
Chroma subsampling : 4:2:0
Bit depth : 8 bits
Scan type : Progressive
Bits/(Pixel*Frame) : 0.064
Stream size : 4.95 MiB (94%)
Language : English
Encoded date : UTC 2014-04-11 22:31:20
Tagged date : UTC 2014-04-11 22:31:20
Color range : Limited
Codec configuration box : avcC

Audio
ID : 2
Format : AAC LC
Format/Info : Advanced Audio Codec Low Complexity
Codec ID : mp4a-40-2
Duration : 51 s 502 ms
Bit rate mode : Variable
Bit rate : 45.5 kb/s
Maximum bit rate : 174 kb/s
Channel(s) : 2 channels
Channel layout : L R
Sampling rate : 44.1 kHz
Frame rate : 43.066 FPS (1024 SPF)
Compression mode : Lossy
Stream size : 286 KiB (5%)
Language : English
Encoded date : UTC 2014-04-11 22:31:20
Tagged date : UTC 2014-04-11 22:31:20
mdhd_Duration : 51502






Continuum.Season.4.S04.1080p.WEB-DL.DD5.1.HEVC.x265-LGC

General
Format : Matroska
Format version : Version 2
File size : 640 MiB
Duration : 44 min 21 s
Overall bit rate : 2 016 kb/s
Encoded date : UTC
Writing application : HandBrake 0.10.2 2015060900
Writing library : Lavf55.12.0

Video
ID : 1
Format : HEVC
Format/Info : High Efficiency Video Coding
Format profile : [email protected]@Main
Codec ID : V_MPEGH/ISO/HEVC
Duration : 44 min 21 s
Bit rate : 1 592 kb/s
Width : 1 918 pixels
Height : 1 078 pixels
Display aspect ratio : 16:9
Frame rate mode : Constant
Frame rate : 23.976 (24000/1001) FPS
Color space : YUV
Chroma subsampling : 4:2:0
Bit depth : 8 bits
Bits/(Pixel*Frame) : 0.032
Stream size : 505 MiB (79%)
Writing library : x265 1.5:[Windows][GCC 4.9.0][64 bit]
Encoding settings : wpp / ctu=32 / tu-intra-depth=1 / tu-inter-depth=1 / me=0 / subme=0 / merange=25 / no-rect / no-amp / max-merge=2 / temporal-mvp / early-skip / no-fast-cbf / rdpenalty=0 / no-tskip / no-tskip-fast / strong-intra-smoothing / no-lossless / no-cu-lossless / no-constrained-intra / fast-intra / open-gop / interlace=0 / keyint=240 / min-keyint=24 / scenecut=0 / rc-lookahead=10 / bframes=4 / bframe-bias=0 / b-adapt=0 / ref=1 / no-weightp / no-weightb / aq-mode=0 / aq-strength=0.00 / cbqpoffs=0 / crqpoffs=0 / rd=2 / psy-rd=0.30 / psy-rdoq=0.00 / no-signhide / lft / no-sao / no-sao-non-deblock / b-pyramid / no-cutree / rc=2 / pass / bitrate=1630 / qcomp=0.60 / qpmin=0 / qpmax=51 / qpstep=4 / cplxblur=20.0 / qblur=0.5 / ipratio=1.40 / pbratio=1.30
Default : Yes
Forced : No
Color range : Limited
Color primaries : BT.709
Transfer characteristics : BT.709
Matrix coefficients : BT.709

Audio
ID : 2
Format : AC-3
Format/Info : Audio Coding 3
Commercial name : Dolby Digital
Codec ID : A_AC3
Duration : 44 min 21 s
Bit rate mode : Constant
Bit rate : 384 kb/s
Channel(s) : 6 channels
Channel layout : L R C LFE Ls Rs
Sampling rate : 48.0 kHz
Frame rate : 31.250 FPS (1536 SPF)
Bit depth : 16 bits
Compression mode : Lossy
Stream size : 122 MiB (19%)
Title : Surround
Language : English
Service kind : Complete Main
Default : Yes
Forced : No

Text
ID : 3
Format : ASS
Codec ID : S_TEXT/ASS
Codec ID/Info : Advanced Sub Station Alpha
Compression mode : Lossless
Language : English
Default : Yes
Forced : No






Download torrent
21.4 GB
seeders:3
leechers:1
Continuum.S01-S04.1080p.HEVC.x265 + WEBISODES 544p


Trackers

tracker name
http://tracker.tfile.me/announce
µTorrent compatible trackers list

Download torrent
21.4 GB
seeders:3
leechers:1
Continuum.S01-S04.1080p.HEVC.x265 + WEBISODES 544p


Torrent hash: 92362F536051BCE8E1AA75CD2B280685AA7F4C0D