Tenet.2020.HC.HDTC.XviD.MP3.LLG

seeders: 232
leechers: 90
updated:
Added by LifeLongg in Movies > Divx/Xvid

Download Fast Safe Anonymous
movies, software, shows...

Files

Tenet.2020.HC.HDTC.XviD.MP3.LLG
  • Sample.avi (22.8 MB)
  • Tenet.2020.HC.HDTC.XviD.MP3.LLG.mp4 (1.3 GB)

Description

Quote:




******************************Thumbnbil:**********************




******************************Screenshots:********************

screenshot 1

screenshot 2

screenshot 3

screenshot 4

screenshot 5

screenshot 6

screenshot 7

screenshot 8

screenshot 9

screenshot 0


******************************************************

Tenet.2020.HC.HDTC.XviD.MP3.LLG.mp4
Format : MPEG-4
Format profile : Base Media
Codec ID : isom (isom/iso2/avc1/mp41)
File size : 1.34 GiB
Duration : 2 h 30 min
Overall bit rate mode : Variable
Overall bit rate : 1 276 kb/s
Writing application : Lavf57.83.100

Video
ID : 1
Format : AVC
Format/Info : Advanced Video Codec
Format profile : [email protected]
Format settings : CABAC / 1 Ref Frames
Format settings, CABAC : Yes
Format settings, Reference frames : 1 frame
Codec ID : avc1
Codec ID/Info : Advanced Video Coding
Duration : 2 h 30 min
Bit rate mode : Variable
Bit rate : 1 144 kb/s
Maximum bit rate : 3 600 kb/s
Width : 720 pixels
Height : 336 pixels
Display aspect ratio : 2.143
Frame rate mode : Constant
Frame rate : 23.976 (23976/1000) FPS
Original frame rate : 23.976 (24000/1001) FPS
Color space : YUV
Chroma subsampling : 4:2:0
Bit depth : 8 bits
Scan type : Progressive
Bits/(Pixel*Frame) : 0.197
Stream size : 1.20 GiB (90%)
Codec configuration box : avcC

Audio
ID : 2
Format : MPEG Audio
Format version : Version 1
Format profile : Layer 3
Format settings : Joint stereo / MS Stereo
Codec ID : mp4a-6B
Duration : 2 h 30 min
Duration_LastFrame : -1 ms
Bit rate mode : Constant
Bit rate : 128 kb/s
Channel(s) : 2 channels
Sampling rate : 48.0 kHz
Compression mode : Lossy
Stream size : 137 MiB (10%)
Default : Yes
Alternate group : 1




********************************************************





Download torrent
1.4 GB
seeders:232
leechers:90
Tenet.2020.HC.HDTC.XviD.MP3.LLG


Trackers

tracker name
udp://tracker.openbittorrent.com:80/announce
udp://tracker.opentrackr.org:1337/announce
UDP://TRACKER.LEECHERS-PARADISE.ORG:6969/ANNOUNCE
µTorrent compatible trackers list

Download torrent
1.4 GB
seeders:232
leechers:90
Tenet.2020.HC.HDTC.XviD.MP3.LLG


Torrent hash: FCB554B6573D42C0554AD4D015FD3486EC44E957